Главная страницаFAQСтол заказовНовости системыНаш ФорумПерсоналии (1371 : 1134) • Пользователи (2014) • RSSНаш Блог
  Раздач на портале : 0 / 100 / 3631
  Ссылок в раздачах : 18901 / 9.6 Тб
  Персоналии : 1134 / 1371
  Комментариев : 6 / 3676
  Пользователи : 3 / 299 / 2014
Сегодня (27.04.2018)  Народные праздники:  Мартын Лисогон. По приметам охотников, это день переселения лисиц со старых в новые норы. Считается, что первые три дня и три ночи своего новоселья бывают они и слепы, и глухи. 'Лисицы роются меж пней, бегут на людей'. 'На Мартына курячья слепота на лисиц нападает'. В этот день замечают, что ворон купает своих детей и отпускает их на отдельное семейное житье.
Сегодня (27.04.2018)  Дни ангела, именины:  Антония, Иоанна, Мартина
Start Page Add Favorites Clear Cookies  
Меню пользователя
Главная страница
Обзор Новинок
Как тут качать?(FAQ)
Правила ресурса
Как Оформить Раздачу(FAQ)
Добавить Раздачу
Новые раздачи
Гостевая книга
Скачать FlyLinkDC++ r5xx beta
Видео (2058)
Анимация (143)
Биография (3)
Боевик (507)
Вестерн (11)
Военный (69)
Детектив (164)
Для мобильных, КПК (11)
Документальный (86)
Драма (598)
Исторический (53)
Клипы и концерты (48)
Комедия (631)
Комикс (7)
Криминал (150)
Мелодрама (200)
Мистика (49)
Мюзикл (11)
Научно-популярный (15)
Отечественный (58)
Приключения (301)
Семейный (28)
Сериал (148)
Скетч-шоу (3)
Спорт (30)
ТВ-шоу (24)
Триллер (521)
Трэш (4)
Ужасы (229)
Фантастика (302)
Фентези (100)
Эротика (7)
Прочее (45)
HD Видео (324)
Сериалы (281)
Игры (379)
Аниме (64)
Программы (129)
Музыка (299)
Книги и Прочее (97)

Самарский DC++ Портал
Друзья Портала:

НАШ Блог
СКС в Самаре

Здесь может быть ваша реклама

Лучшие модераторы
 1. Kondrat (572)
 2. SCALOlaz (2)
  Активные Боты  
Бот Визитов
1. - NoName - 2458545
2. AhrefsBot 1571594
3. YandexBot 1396999
4. Bing Bot 1299053
5. GoogleBot 1265736
 
Поиск
 Я ищу Расширенный поиск    

Видео
Пила 3D / Saw 3D
добавлено: 08.12.2010 19:45:49    #  #  #  #  #

Кто добавил:

Personne


Рейтинг
1
( +1 / -0 )


Нажмите для увеличения
Категория: Видео
Жанр : Ужасы, Триллер, Детектив
Год выпуска: 2010
Страна: США
Перевод: Дублированный
Режиссер: Кевин Гротерт
В ролях: Костас Мэндилор, Шон Патрик Флэнери, Тобин Белл, Кэри Элвис, Бетси Расселл, Дин Армстронг, Чэд Донелла, Джина Холден, Наоми Сникус, Ребекка Маршалл
Качество: DVDRip
Формат: MKV

Размер:

802 МБ


               Персоналии:
Костас Мэндилор / Costas Mandylor (7) Тобин Белл / Tobin Bel (25) Джина Холден / Gina Holden (5)  
Описание:

Жертвы Пилы, выжившие в предыдущих испытаниях, обращаются за психологической помощью к товарищу по несчастью Бобби Дагену. Но когда его собственные темные тайны всплывают на свет, развязывается новая волна террора.


Video
ID : 1
Format : AVC
Format/Info : Advanced Video Codec
Format profile : High@L3.0
Format settings, CABAC : Yes
Format settings, ReFrames : 4 frames
Muxing mode : Container profile=Unknown@3.0
Codec ID : V_MPEG4/ISO/AVC
Duration : 1h 26mn
Bit rate : 848 Kbps
Width : 704 pixels
Height : 400 pixels
Display aspect ratio : 16:9
Frame rate : 25.000 fps
Color space : YUV
Chroma subsampling : 4:2:0
Bit depth : 8 bits
Scan type : Progressive
Bits/(Pixel*Frame) : 0.120
Stream size : 509 MiB (63%)
Title : http://freetorrents.org.ua
Writing library : x264 core 104 r1713bm c276662
Encoding settings : cabac=1 / ref=3 / deblock=1:0:0 / analyse=0x3:0x113 / me=hex / subme=7 / psy=1 / psy_rd=1.00:0.00 / mixed_ref=1 / me_range=16 / chroma_me=1 / trellis=1 / 8x8dct=1 / cqm=0 / deadzone=21,11 / fast_pskip=1 / chroma_qp_offset=-2 / threads=1 / sliced_threads=0 / nr=0 / decimate=1 / interlaced=0 / constrained_intra=0 / bframes=3 / b_pyramid=2 / b_adapt=1 / b_bias=0 / direct=1 / weightb=1 / open_gop=0 / weightp=2 / keyint=250 / keyint_min=25 / scenecut=40 / intra_refresh=0 / rc_lookahead=40 / rc=2pass / mbtree=1 / bitrate=848 / ratetol=1.0 / qcomp=0.60 / qpmin=10 / qpmax=51 / qpstep=4 / cplxblur=20.0 / qblur=0.5 / ip_ratio=1.40 / aq=1:1.00
Language : English

Audio
ID : 2
Format : AC-3
Format/Info : Audio Coding 3
Mode extension : CM (complete main)
Codec ID : A_AC3
Duration : 1h 26mn
Bit rate mode : Constant
Bit rate : 448 Kbps
Channel(s) : 6 channels
Channel positions : Front: L C R, Side: L R, LFE
Sampling rate : 48.0 KHz
Bit depth : 16 bits
Stream size : 277 MiB (35%)
Title : http://freetorrents.org.ua
Language : Russian







Размеры оригинала: 704x400 точек, 117.58 Kb, эскиза: 422x240 точек


Прочие скриншоты - показать

Ссылки:

1. Pila.7.2010.D.Rus.x264.DVDRip
(08.12.2010 19:45:49 - Personne) размер: 802.04 Mb. скачано: 3
Имя файла: Pila.7.2010.D.Rus.x264.DVDRip.FreeTorrents-UA.mkv
Скачать    Pila.7.2010.D.Rus.x264.DVDRip.FreeTorrents-UA.mkv




Оставлять комментарии могут только зарегистрированые пользователи


Похожие названия
• Совпадений не найдено

 
Меню пользователя

Логин: 
Пароль: 
Регистрация  
Радио   Игры  
  Случайная раздача  
  Случайная персоналия  
  Опрос  

Что вы думаете о семенах подсолнечника (по простому - семечки) ?
1.   Люблю погрызть семечки. Мне нравятся.
2.   Пережиток прошлого! От них портятся зубы.
3.   Заразная весчь. Не оторвешься.
4.   Семки? Опа-опа, отсыпь семков, пацанчек!
5.   Воздерживаюсь от ответа
6.   А я все знаю но вам не скажу

Зарегистрируйтесь и голосуйте!
Отчет   
  Сегодня...  
  Облако тэгов  
Полноэкранная версия   
  Новые Игры  
1. Chess
2. MahnJongg
3. Ef
4. Alien
  Новые комменты  
1: Assassins Creed Revelations
А как же на Max Payne 3 на 29Гб?
2: Шесть дней, семь ночей / Six D...
Милый комедийно-мелодраматичный мув. История героев повторяет...
3: Team Fortress 2 - Free-to-Play
это онлайн
4: Доктор Хаус 8 / House M.D. 8 (...
+14
5: Стрела. Абсолютное оружие / Ch...
Разадчи по Дагестанский
  Новое в Гостевой  
1:
2: ку
3: Всем ку!!!
4: взял и удалил весь спам
5: Ой, а что это?

Rambler's Top100
Яндекс цитирования

Лучшие пользователи
 1. Kondrat (32928)
 2. SCALOlaz (718)
 3. enbjenickrrick (0)
 4. pandoraapcheap (0)
** 123456789
Популярное за месяц - Видео
 
Пользователи онлайн (1) гости (2) UP
 Пользователи: SCALOlaz
 Боты: - NoName -
 Последние регистрации: Asterothgrey , jessybaby , Avaaroumma , Wild , KNIGHT RIDER
 Ближайшие Дни Рождения: никого нет
 
Администрация Портала не несет ответственности за действия пользователей. Портал содержит только описание и магнет-ссылки, предоставленные пользователями.
Скачивание производится с любого доступного в данный момент -Хаба-.
Все права на опубликованный текст, графику (постеры, скриншоты), мультимедиа-, фото-, видео-, аудиоматериалы принадлежат их авторам. Информация и ссылки опубликованы только для ОЗНАКОМЛЕНИЯ, после чего файлы должны быть удалены.
Использование предоставленных материалов в коммерческих целях, а так-же с целью получения материальной выгоды ЗАПРЕЩЕНО.
Портал не имеет целей нарушить авторские, смежные и прочие защищенные законодательством права лиц, причастных к созданию, либо обремененных официальными правами сетей, торговых представителей.
Coding: "UserSide"SCALOlaz
Design: 'SCALOlaz' и "UserSide"
Система "Magneto" v.1.9.4 by inwm v.1.9.4 -   :
Страница генерировалась: 0.3 с.