Главная страницаFAQСтол заказовНовости системыНаш ФорумПерсоналии (1371 : 1134) • Пользователи (2015) • RSSНаш Блог
  Раздач на портале : 0 / 100 / 3631
  Ссылок в раздачах : 18901 / 9.6 Тб
  Персоналии : 1134 / 1371
  Комментариев : 6 / 3676
  Пользователи : 24 / 785 / 2015
Сегодня (16.11.2018)  Государственные праздники: Открытие Суэцкого канала (1869 г.) Сегодня (16.11.2018)  Дни ангела, именины:  Георгия, Иосифа
Start Page Add Favorites Clear Cookies  
Меню пользователя
Главная страница
Обзор Новинок
Как тут качать?(FAQ)
Правила ресурса
Как Оформить Раздачу(FAQ)
Добавить Раздачу
Новые раздачи
Гостевая книга
Скачать FlyLinkDC++ r5xx beta
Видео (2058)
Анимация (143)
Биография (3)
Боевик (507)
Вестерн (11)
Военный (69)
Детектив (164)
Для мобильных, КПК (11)
Документальный (86)
Драма (598)
Исторический (53)
Клипы и концерты (48)
Комедия (631)
Комикс (7)
Криминал (150)
Мелодрама (200)
Мистика (49)
Мюзикл (11)
Научно-популярный (15)
Отечественный (58)
Приключения (301)
Семейный (28)
Сериал (148)
Скетч-шоу (3)
Спорт (30)
ТВ-шоу (24)
Триллер (521)
Трэш (4)
Ужасы (229)
Фантастика (302)
Фентези (100)
Эротика (7)
Прочее (45)
HD Видео (324)
Сериалы (281)
Игры (379)
Аниме (64)
Программы (129)
Музыка (299)
Книги и Прочее (97)

Самарский DC++ Портал
Друзья Портала:

НАШ Блог
СКС в Самаре

Здесь может быть ваша реклама

Лучшие модераторы
 1. Kondrat (572)
 2. SCALOlaz (2)
  Активные Боты  
Бот Визитов
1. - NoName - 3076690
2. AhrefsBot 1797763
3. YandexBot 1418174
4. Bing Bot 1320820
5. GoogleBot 1301990
 
Поиск
 Я ищу Расширенный поиск    

Видео
Потрошители / Repo Men
добавлено: 06.12.2010 17:44:20    #  #  #  #  #

Кто добавил:

Personne


Рейтинг
3
( +3 / -0 )


Нажмите для увеличения
Категория: Видео
Жанр : Фантастика, Боевик, Триллер, Драма, Криминал
Год выпуска: 2009
Страна: США
Перевод: Дублированный
Режиссер: Мигель Сапочник
В ролях: Джуд Лоу, Форест Уитакер, Алиси Брага, Лив Шрайбер, Кэрис Ван Хаутен, Чандлер Кентербери, Джо Пинг, Лиза Лапира, Тиффани Эспенсен, Ивет Николь Браун
Качество: HDRip
Формат: AVI

Размер:

1890 МБ


               Раздача связана с:
      Персоналии:
Джуд Лоу / Jude Law (17) Алиси Брага / Alice Braga (10) Лив Шрайбер / Liev Schreiber (13) Кэрис Ван Хаутен / Carice van Houten (3) Лиза Лапира / Liza Lapira (9) Джо Пинг / Joe Pingue (8)  
Описание:

В недалеком будущем искусственные органы будут доступны всем и даже в кредит. Если же человек не в состоянии оплатить долг, то принимаются крайне жесткие меры. Однажды к нему в дом может вломиться Потрошитель, который способен подавить любое сопротивление и должен изъять из него искусственный орган, собственность компании Union. Реми как раз такой - и охотник, и жертва - он Потрошитель, и он же не может оплатить пересадку сердца, а посему вынужден пуститься в бега…


Video
ID : 0
Format : MPEG-4 Visual
Format profile : Advanced Simple@L5
Format settings, BVOP : Yes
Format settings, QPel : No
Format settings, GMC : No warppoints
Format settings, Matrix : Default (MPEG)
Codec ID : XVID
Codec ID/Hint : XviD
Duration : 1h 59mn
Bit rate : 1 816 Kbps
Width : 720 pixels
Height : 304 pixels
Display aspect ratio : 2.35:1
Frame rate : 23.976 fps
Color space : YUV
Chroma subsampling : 4:2:0
Bit depth : 8 bits
Scan type : Progressive
Bits/(Pixel*Frame) : 0.346
Stream size : 1.52 GiB (82%)
Writing library : XviD 1.2.1 (UTC 2008-12-04)

Audio
ID : 1
Format : AC-3
Format/Info : Audio Coding 3
Mode extension : CM (complete main)
Codec ID : 2000
Duration : 1h 59mn
Bit rate mode : Constant
Bit rate : 384 Kbps
Channel(s) : 6 channels
Channel positions : Front: L C R, Side: L R, LFE
Sampling rate : 48.0 KHz
Bit depth : 16 bits
Stream size : 328 MiB (17%)
Alignment : Split accross interleaves
Interleave, duration : 42 ms (1.00 video frame)
Interleave, preload duration : 500 ms







Размеры оригинала: 720x304 точек, 85.49 Kb, эскиза: 568x240 точек


Прочие скриншоты - показать

Ссылки:

1. Potroshiteli.2010.D.Rus.HDRip.
(06.12.2010 17:44:20 - Personne) размер: 1.85 Gb. скачано: 4
Имя файла: Potroshiteli.2010.D.Rus.HDRip..avi
Скачать    Potroshiteli.2010.D.Rus.HDRip..avi




Оставлять комментарии могут только зарегистрированые пользователи


Похожие названия
ЖКХ - потрошитель. История всероссийского обмана : [930 Мб.], категория: Видео - кто добавил: Kondrat - дата добавления: 18.12.2010 21:01:36

 
Меню пользователя

Логин: 
Пароль: 
Регистрация  
Радио   Игры  
  Случайная раздача  
  Случайная персоналия  
  Опрос  

Что по вашему означает слово "винчестер" ?
1.   Вид оружия
2.   Марка сигарет
3.   Жесткий Диск компьютера

Зарегистрируйтесь и голосуйте!
Отчет   
  Сегодня...  
  Облако тэгов  
Полноэкранная версия   
  Новые Игры  
1. Chess
2. MahnJongg
3. Ef
4. Alien
  Новые комменты  
1: Assassins Creed Revelations
А как же на Max Payne 3 на 29Гб?
2: Шесть дней, семь ночей / Six D...
Милый комедийно-мелодраматичный мув. История героев повторяет...
3: Team Fortress 2 - Free-to-Play
это онлайн
4: Доктор Хаус 8 / House M.D. 8 (...
+14
5: Стрела. Абсолютное оружие / Ch...
Разадчи по Дагестанский
  Новое в Гостевой  
1:
2: ку
3: Всем ку!!!
4: взял и удалил весь спам
5: Ой, а что это?

Rambler's Top100
Яндекс цитирования

Лучшие пользователи
 1. Kondrat (32928)
 2. SCALOlaz (718)
 3. enbjenickrrick (0)
 4. pandoraapcheap (0)
** 123456789
Популярное за месяц - Видео
 
Пользователи онлайн (1) гости (23) UP
 Пользователи: SCALOlaz
 Боты: - NoName -, YandexBot, AhrefsBot
 Последние регистрации: kellyanne , Asterothgrey , jessybaby , Avaaroumma , Wild
 Ближайшие Дни Рождения: никого нет
 
Администрация Портала не несет ответственности за действия пользователей. Портал содержит только описание и магнет-ссылки, предоставленные пользователями.
Скачивание производится с любого доступного в данный момент -Хаба-.
Все права на опубликованный текст, графику (постеры, скриншоты), мультимедиа-, фото-, видео-, аудиоматериалы принадлежат их авторам. Информация и ссылки опубликованы только для ОЗНАКОМЛЕНИЯ, после чего файлы должны быть удалены.
Использование предоставленных материалов в коммерческих целях, а так-же с целью получения материальной выгоды ЗАПРЕЩЕНО.
Портал не имеет целей нарушить авторские, смежные и прочие защищенные законодательством права лиц, причастных к созданию, либо обремененных официальными правами сетей, торговых представителей.
Coding: "UserSide"SCALOlaz
Design: 'SCALOlaz' и "UserSide"
Система "Magneto" v.1.9.4 by inwm v.1.9.4 -   :
Страница генерировалась: 0.3 с.