Главная страницаFAQСтол заказовНовости системыНаш ФорумПерсоналии (1371 : 1134) • Пользователи (2015) • RSSНаш Блог
  Раздач на портале : 0 / 100 / 3631
  Ссылок в раздачах : 18901 / 9.6 Тб
  Персоналии : 1134 / 1371
  Комментариев : 6 / 3676
  Пользователи : 11 / 785 / 2015
Сегодня (20.07.2018)  Государственные праздники: Международный день шахмат Сегодня (20.07.2018)  Народные праздники:  Авдотья Сеногнойка. Идут дожди, портится сено.
Сегодня (20.07.2018)  Дни ангела, именины:  Германа, Евдокии, Евфросинии, Фомы, Акакия
Start Page Add Favorites Clear Cookies  
Меню пользователя
Главная страница
Обзор Новинок
Как тут качать?(FAQ)
Правила ресурса
Как Оформить Раздачу(FAQ)
Добавить Раздачу
Новые раздачи
Гостевая книга
Скачать FlyLinkDC++ r5xx beta
Видео (2058)
HD Видео (324)
Анимация (52)
Биография (1)
Боевик (125)
Вестерн (3)
Военный (12)
Детектив (18)
Документальный (6)
Драма (82)
Исторический (8)
Клипы и концерты (8)
Комедия (42)
Криминал (17)
Мелодрама (19)
Мистика (10)
Мюзикл (4)
Отечественный (2)
Приключения (78)
Семейный (2)
Сериал
Спорт (8)
Театр
Триллер (87)
Трэш (1)
Ужасы (28)
Фантастика (72)
Фентези (16)
Эротика (7)
Прочее (4)
Сериалы (281)
Игры (379)
Аниме (64)
Программы (129)
Музыка (299)
Книги и Прочее (97)

Самарский DC++ Портал
Друзья Портала:

НАШ Блог
СКС в Самаре

Здесь может быть ваша реклама

Лучшие модераторы
 1. SCALOlaz (2)
  Активные Боты  
Бот Визитов
1. - NoName - 2642110
2. AhrefsBot 1669165
3. YandexBot 1404604
4. Bing Bot 1308926
5. GoogleBot 1283957
 
Поиск
 Я ищу Расширенный поиск    

HD Видео
Ванильное небо / Vanilla Sky
добавлено: 05.12.2010 14:03:41    #  #  #  #  #

Кто добавил:

Personne


Рейтинг
1
( +1 / -0 )


Нажмите для увеличения
Категория: HD Видео
Жанр : Фантастика, Триллер, Мелодрама, Детектив
Год выпуска: 2001
Страна: США
Перевод: Профессиональный (многоголосый)
Продолжительность: 132 мин. 37 сек.
Режисер: Кэмерон Кроу
В ролях: Том Круз, Пенелопа Крус, Кэмерон Диаз, Курт Расселл, Джейсон Ли, Ноа Тэйлор, Тимоти Сполл, Тильда Суинтон, Майкл Шэннон, Шалом Харлоу, Ивана Миличевич, Джонни Галецки, Алисия Уитт
Формат: MKV

Размер:

4483 МБ


               Персоналии:
Том Круз / Tom Cruise (21) Пенелопа Крус / Penelope Cruz (7) Кэмерон Диаз / Cameron Diaz (23) Курт Расселл / Kurt Russell (5) Джейсон Ли / Jason Lee (23) Тильда Суинтон / Tilda Swinton (6) Ивана Миличевич / Ivana Milicevic (2) Алисия Уитт / Alicia Witt (2)  
Описание:

У богатого плэйбоя Дэвида было все: деньги, свой собственный издательский дом, дорогая машина и квартира в респектабельном районе Нью-Йорка, друг-писатель и подружка Джулианна, даже враги, в лице семи управляющих его компанией, тоже были. Так он и жил без оглядки, пока в один прекрасный момент не встретил Софию.

Его жизнь круто изменилась вскоре после этой встречи, Дэвид попал в автокатастрофу и очнулся после комы инвалидом с изуродованным лицом, которое приходится прикрывать «эстетическим протезом», а на самом деле простой маской. А дальше его новая жизнь обернулась кошмарным сном, от которого нельзя проснуться.


Video
ID : 1
Format : AVC
Format/Info : Advanced Video Codec
Format profile : High@L5.1
Format settings, CABAC : Yes
Format settings, ReFrames : 6 frames
Muxing mode : Container profile=Unknown@5.1
Codec ID : V_MPEG4/ISO/AVC
Duration : 2h 12mn
Bit rate : 4 337 Kbps
Width : 1 280 pixels
Height : 720 pixels
Display aspect ratio : 16:9
Frame rate : 23.976 fps
Color space : YUV
Chroma subsampling : 4:2:0
Bit depth : 8 bits
Scan type : Progressive
Bits/(Pixel*Frame) : 0.196
Stream size : 3.93 GiB (90%)
Writing library : x264 core 54 svn-602M
Encoding settings : cabac=1 / ref=3 / deblock=1:-2:-1 / analyse=0x3:0x133 / me=umh / subme=6 / brdo=0 / mixed_ref=0 / me_range=12 / chroma_me=1 / trellis=1 / 8x8dct=1 / cqm=0 / deadzone=21,11 / chroma_qp_offset=0 / slices=2 / nr=0 / decimate=1 / mbaff=0 / bframes=3 / b_pyramid=1 / b_adapt=1 / b_bias=0 / direct=3 / wpredb=1 / bime=0 / keyint=250 / keyint_min=25 / scenecut=40 / rc=2pass / bitrate=4337 / ratetol=1.0 / rceq="blurCplx^(1-qComp)" / qcomp=0.60 / qpmin=10 / qpmax=51 / qpstep=4 / cplxblur=20.0 / qblur=0.5 / ip_ratio=1.40 / pb_ratio=1.30
Language : English

Audio
ID : 2
Format : AC-3
Format/Info : Audio Coding 3
Mode extension : CM (complete main)
Codec ID : A_AC3
Duration : 2h 12mn
Bit rate mode : Constant
Bit rate : 384 Kbps
Channel(s) : 6 channels
Channel positions : Front: L C R, Side: L R, LFE
Sampling rate : 48.0 KHz
Bit depth : 16 bits
Stream size : 364 MiB (8%)
Language : Russian







Размеры оригинала: 1280x720 точек, 258.88 Kb, эскиза: 427x240 точек


Прочие скриншоты - показать

Ссылки:

1. Ванильное небо (Vanilla Sky)
(06.12.2010 18:56:42 - Personne) размер: 4.38 Gb. скачано: 1
Имя файла: ...
Скачать   




Оставлять комментарии могут только зарегистрированые пользователи


Похожие названия
• Совпадений не найдено

 
Меню пользователя

Логин: 
Пароль: 
Регистрация  
Радио   Игры  
  Случайная раздача  
  Случайная персоналия  
  Опрос  

Если (ни дай бог конечно) на вас напали в тёмном переулке, вы
1.   Громко позовёте на помощь
2.   Смело надаёте обидчику(ам) по морде лица
3.   Терпеливо огребёте "люлей", затем обратитесь в полицию
4.   Достанете мобильник и постараетесь сфотографировать обидчика(ов)
5.   Попытаетесь "свалить"... по стене, через сломаный забор... не важно как
6.   Я и есть обидчик...
7.   Я всё знаю, но свой секрет оставлю при себе

Зарегистрируйтесь и голосуйте!
Отчет   
  Сегодня...  
  Облако тэгов  
Полноэкранная версия   
  Новые Игры  
1. Chess
2. MahnJongg
3. Ef
4. Alien
  Новые комменты  
1: Assassins Creed Revelations
А как же на Max Payne 3 на 29Гб?
2: Шесть дней, семь ночей / Six D...
Милый комедийно-мелодраматичный мув. История героев повторяет...
3: Team Fortress 2 - Free-to-Play
это онлайн
4: Доктор Хаус 8 / House M.D. 8 (...
+14
5: Стрела. Абсолютное оружие / Ch...
Разадчи по Дагестанский
  Новое в Гостевой  
1:
2: ку
3: Всем ку!!!
4: взял и удалил весь спам
5: Ой, а что это?

Rambler's Top100
Яндекс цитирования

Лучшие пользователи
 1. SCALOlaz (718)
 2. enbjenickrrick (0)
 3. pandoraapcheap (0)
** 123456789
Популярное за месяц - HD Видео
 
Пользователи онлайн (1) гости (10) UP
 Пользователи: SCALOlaz
 Боты: - NoName -, YandexBot, Mail.Ru, DotBot, AhrefsBot
 Последние регистрации: kellyanne , Asterothgrey , jessybaby , Avaaroumma , Wild
 Ближайшие Дни Рождения: никого нет
 
Администрация Портала не несет ответственности за действия пользователей. Портал содержит только описание и магнет-ссылки, предоставленные пользователями.
Скачивание производится с любого доступного в данный момент -Хаба-.
Все права на опубликованный текст, графику (постеры, скриншоты), мультимедиа-, фото-, видео-, аудиоматериалы принадлежат их авторам. Информация и ссылки опубликованы только для ОЗНАКОМЛЕНИЯ, после чего файлы должны быть удалены.
Использование предоставленных материалов в коммерческих целях, а так-же с целью получения материальной выгоды ЗАПРЕЩЕНО.
Портал не имеет целей нарушить авторские, смежные и прочие защищенные законодательством права лиц, причастных к созданию, либо обремененных официальными правами сетей, торговых представителей.
Coding: "UserSide"SCALOlaz
Design: 'SCALOlaz' и "UserSide"
Система "Magneto" v.1.9.4 by inwm v.1.9.4 -   :
Страница генерировалась: 0.5 с.