Главная страницаFAQСтол заказовНовости системыНаш ФорумПерсоналии (1371 : 1134) • Пользователи (2015) • RSSНаш Блог
  Раздач на портале : 0 / 100 / 3631
  Ссылок в раздачах : 18901 / 9.6 Тб
  Персоналии : 1134 / 1371
  Комментариев : 6 / 3676
  Пользователи : 14 / 785 / 2015
Сегодня (21.07.2018)  Народные праздники:  Казанская, День иконы Казанской Божьей Матери. Прокопий Жатвенник. Коли черница поспевает, то поспела и рожь. Начало уборки ржи. Зажинки, вязали зажиночный сноп.
Сегодня (21.07.2018)  Дни ангела, именины:  Прокопия
Start Page Add Favorites Clear Cookies  
Меню пользователя
Главная страница
Обзор Новинок
Как тут качать?(FAQ)
Правила ресурса
Как Оформить Раздачу(FAQ)
Добавить Раздачу
Новые раздачи
Гостевая книга
Скачать FlyLinkDC++ r5xx beta
Видео (2058)
Анимация (143)
Биография (3)
Боевик (507)
Вестерн (11)
Военный (69)
Детектив (164)
Для мобильных, КПК (11)
Документальный (86)
Драма (598)
Исторический (53)
Клипы и концерты (48)
Комедия (631)
Комикс (7)
Криминал (150)
Мелодрама (200)
Мистика (49)
Мюзикл (11)
Научно-популярный (15)
Отечественный (58)
Приключения (301)
Семейный (28)
Сериал (148)
Скетч-шоу (3)
Спорт (30)
ТВ-шоу (24)
Триллер (521)
Трэш (4)
Ужасы (229)
Фантастика (302)
Фентези (100)
Эротика (7)
Прочее (45)
HD Видео (324)
Сериалы (281)
Игры (379)
Аниме (64)
Программы (129)
Музыка (299)
Книги и Прочее (97)

Самарский DC++ Портал
Друзья Портала:

НАШ Блог
СКС в Самаре

Здесь может быть ваша реклама

Лучшие модераторы
 1. SCALOlaz (2)
  Активные Боты  
Бот Визитов
1. - NoName - 2644655
2. AhrefsBot 1669524
3. YandexBot 1405361
4. Bing Bot 1309153
5. GoogleBot 1284921
 
Поиск
 Я ищу Расширенный поиск    

Видео
Иллюзионист / The Illusionist
добавлено: 05.12.2010 13:11:16    #  #  #  #  #

Кто добавил:

Personne


Рейтинг
1
( +1 / -0 )


Нажмите для увеличения
Категория: Видео
Жанр : Триллер, Мелодрама, Драма, Детектив
Год выпуска: 2006
Страна: США, Чехия
Перевод: Дублированный
Режиссер: Нил Бёргер
В ролях: Эдвард Нортон, Пол Джаматти, Джессика Бил, Руфус Сьюэлл, Эдди Марсан, Джейк Вуд, Том Фишер, Аарон Джонсон, Элинор Томлинсон, Карл Джонсон
Качество: DVDRip
Формат: AVI

Размер:

1396 МБ


               Персоналии:
Эдвард Нортон / Edward Norton (11) Джессика Бил / Jessica Biel (14) Аарон Джонсон / Aaron Johnson (6)  
Описание:

Вена. Начало 20 века. В городе появляется загадочный человек, называвший себя иллюзионистом Эйзенхаймом. Он показывает публике невиданные фокусы, которые кажутся не иначе как волшебством.

Слава о необыкновенном чародее доходит до кронпринца Леопольда, который почтил своим присутствием одно из представлений Эйзенхайма. Леопольда сопровождает его будущая невеста Софи. Её появление в зале дает толчок для целой вереницы необъяснимых событий, корни которых уходят в прошлое…


Video
ID : 0
Format : MPEG-4 Visual
Format profile : Advanced Simple@L5
Format settings, BVOP : Yes
Format settings, QPel : No
Format settings, GMC : No warppoints
Format settings, Matrix : Default (MPEG)
Muxing mode : Packed bitstream
Codec ID : XVID
Codec ID/Hint : XviD
Duration : 1h 45mn
Bit rate : 1 401 Kbps
Width : 672 pixels
Height : 352 pixels
Display aspect ratio : 1.909
Frame rate : 25.000 fps
Color space : YUV
Chroma subsampling : 4:2:0
Bit depth : 8 bits
Scan type : Progressive
Bits/(Pixel*Frame) : 0.237
Stream size : 1.03 GiB (75%)
Writing library : XviD 1.1.2 (UTC 2006-11-01)

Audio
ID : 1
Format : AC-3
Format/Info : Audio Coding 3
Mode extension : CM (complete main)
Codec ID : 2000
Duration : 1h 45mn
Bit rate mode : Constant
Bit rate : 448 Kbps
Channel(s) : 6 channels
Channel positions : Front: L C R, Side: L R, LFE
Sampling rate : 48.0 KHz
Bit depth : 16 bits
Stream size : 337 MiB (24%)
Alignment : Split accross interleaves
Interleave, duration : 40 ms (1.00 video frame)
Interleave, preload duration : 500 ms







Размеры оригинала: 672x352 точек, 118.83 Kb, эскиза: 458x240 точек


Прочие скриншоты - показать

Ссылки:

1. Иллюзионист.2006.DVDRip
(07.12.2010 18:21:15 - Personne) размер: 1.36 Gb. скачано: 5
Имя файла: ...
Скачать   




Оставлять комментарии могут только зарегистрированые пользователи


Похожие названия
Иллюзия полета / Flightplan / DVDRip : [690 Мб.], категория: Видео - кто добавил: Zend - дата добавления: 13.11.2009 02:04:15

 
Меню пользователя

Логин: 
Пароль: 
Регистрация  
Радио   Игры  
  Случайная раздача  
  Случайная персоналия  
  Опрос  

Пьете ли вы водку на Новый год?
1.   Не понял вопроса
2.   В каком смысле?
3.   Обычную водку?
4.   Как понять "пьете водку"?
5.   Все вышеперчисленное
6.   Я всё знаю но вам не скажу

Зарегистрируйтесь и голосуйте!
Отчет   
  Сегодня...  
  Облако тэгов  
Полноэкранная версия   
  Новые Игры  
1. Chess
2. MahnJongg
3. Ef
4. Alien
  Новые комменты  
1: Assassins Creed Revelations
А как же на Max Payne 3 на 29Гб?
2: Шесть дней, семь ночей / Six D...
Милый комедийно-мелодраматичный мув. История героев повторяет...
3: Team Fortress 2 - Free-to-Play
это онлайн
4: Доктор Хаус 8 / House M.D. 8 (...
+14
5: Стрела. Абсолютное оружие / Ch...
Разадчи по Дагестанский
  Новое в Гостевой  
1:
2: ку
3: Всем ку!!!
4: взял и удалил весь спам
5: Ой, а что это?

Rambler's Top100
Яндекс цитирования

Лучшие пользователи
 1. SCALOlaz (718)
 2. enbjenickrrick (0)
 3. pandoraapcheap (0)
** 123456789
Популярное за месяц - Видео
 
Пользователи онлайн (1) гости (13) UP
 Пользователи: SCALOlaz
 Боты: - NoName -, YandexBot, GoogleBot, AhrefsBot
 Последние регистрации: kellyanne , Asterothgrey , jessybaby , Avaaroumma , Wild
 Ближайшие Дни Рождения: никого нет
 
Администрация Портала не несет ответственности за действия пользователей. Портал содержит только описание и магнет-ссылки, предоставленные пользователями.
Скачивание производится с любого доступного в данный момент -Хаба-.
Все права на опубликованный текст, графику (постеры, скриншоты), мультимедиа-, фото-, видео-, аудиоматериалы принадлежат их авторам. Информация и ссылки опубликованы только для ОЗНАКОМЛЕНИЯ, после чего файлы должны быть удалены.
Использование предоставленных материалов в коммерческих целях, а так-же с целью получения материальной выгоды ЗАПРЕЩЕНО.
Портал не имеет целей нарушить авторские, смежные и прочие защищенные законодательством права лиц, причастных к созданию, либо обремененных официальными правами сетей, торговых представителей.
Coding: "UserSide"SCALOlaz
Design: 'SCALOlaz' и "UserSide"
Система "Magneto" v.1.9.4 by inwm v.1.9.4 -   :
Страница генерировалась: 0.4 с.