Главная страницаFAQСтол заказовНовости системыНаш ФорумПерсоналии (1371 : 1134) • Пользователи (2018) • RSSНаш Блог
  Раздач на портале : 0 / 100 / 3630
  Ссылок в раздачах : 18899 / 9.6 Тб
  Персоналии : 1134 / 1371
  Комментариев : 6 / 3676
  Пользователи : 30 / 785 / 2018
Сегодня (02.07.2020)  Дни ангела, именины:  Варлаама, Иоанна
Start Page Add Favorites Clear Cookies  
Меню пользователя
Главная страница
Обзор Новинок
Как тут качать?(FAQ)
Правила ресурса
Как Оформить Раздачу(FAQ)
Добавить Раздачу
Новые раздачи
Гостевая книга
Скачать FlyLinkDC++ r5xx beta
Видео (2058)
Анимация (143)
Биография (3)
Боевик (507)
Вестерн (11)
Военный (69)
Детектив (164)
Для мобильных, КПК (11)
Документальный (86)
Драма (598)
Исторический (53)
Клипы и концерты (48)
Комедия (631)
Комикс (7)
Криминал (150)
Мелодрама (200)
Мистика (49)
Мюзикл (11)
Научно-популярный (15)
Отечественный (58)
Приключения (301)
Семейный (28)
Сериал (148)
Скетч-шоу (3)
Спорт (30)
ТВ-шоу (24)
Триллер (521)
Трэш (4)
Ужасы (229)
Фантастика (302)
Фентези (100)
Эротика (7)
Прочее (45)
HD Видео (324)
Сериалы (281)
Игры (379)
Аниме (63)
Программы (129)
Музыка (299)
Книги и Прочее (97)

Самарский DC++ Портал
Друзья Портала:

НАШ Блог
СКС в Самаре

Здесь может быть ваша реклама

Лучшие модераторы
 1. SCALOlaz (2)
  Активные Боты  
Бот Визитов
1. - NoName - 5310923
2. AhrefsBot 2538269
3. YandexBot 1488710
4. Bing Bot 1414189
5. Majestic-12 1365219
 
Поиск
 Я ищу Расширенный поиск    

Видео
Приют / The Orphanage / El orfanato
добавлено: 25.08.2010 00:23:43    #  #  #  #  #

Кто добавил:

Personne


Рейтинг
2
( +2 / -0 )


Нажмите для увеличения
Категория: Видео
Жанр : Ужасы, Триллер, Драма, Мистика
Год выпуска: 2007
Страна: Испания / Мексика
Перевод: Профессиональный (полное дублирование)
Режиссер: Хуан Антонио Байона
В ролях: Белен Руэда, Мэйбл Ривера, Оскар Касас, Кармен Лопез, Алехандро Кампос, Джеральдин Чаплин
Качество: HDRip (XviD)
Формат: AVI

Размер:

745 МБ


        
Описание:

Самые счастливые годы Лаура провела в сиротском приюте на побережье. Любимые воспитатели заменили ей родителей, а друзья — братьев и сестер. Через тридцать лет Лаура возвращается в дом своего детства с мужем и семилетним сыном. Она мечтает восстановить его и открыть для новых маленьких посетителей. Однако героиню поразили перемены, произошедшие с ее собственным сыном.
Из милого мальчика он превратился в маленького монстра с жестокими фантазиями и опасными играми. Она уверена, что во всем виноват старый дом, таящий скрытую угрозу. Постепенно картины прошлого всплывают в памяти Лауры и открывают ей страшную истину….м бурного воображения Уитакера, становится практически невозможно.


Video
ID : 0
Format : MPEG-4 Visual
Format profile : Advanced Simple@L5
Format settings, BVOP : Yes
Format settings, QPel : No
Format settings, GMC : No warppoints
Format settings, Matrix : Default (H.263)
Codec ID : XVID
Codec ID/Hint : XviD
Duration : 1h 45mn
Bit rate : 847 Kbps
Width : 720 pixels
Height : 304 pixels
Display aspect ratio : 2.35:1
Frame rate : 23.976 fps
Color space : YUV
Chroma subsampling : 4:2:0
Bit depth : 8 bits
Scan type : Progressive
Bits/(Pixel*Frame) : 0.161
Stream size : 641 MiB (86%)
Writing library : XviD 1.2.1 (UTC 2008-12-04)

Audio
ID : 1
Format : MPEG Audio
Format version : Version 1
Format profile : Layer 3
Mode : Joint stereo
Mode extension : MS Stereo
Codec ID : 55
Codec ID/Hint : MP3
Duration : 1h 45mn
Bit rate mode : Constant
Bit rate : 128 Kbps
Channel(s) : 2 channels
Sampling rate : 48.0 KHz
Stream size : 96.9 MiB (13%)
Alignment : Split accross interleaves
Interleave, duration : 42 ms (1.00 video frame)
Interleave, preload duration : 500 ms
Writing library : LAME3.98.2







Размеры оригинала: 720x304 точек, 47.23 Kb, эскиза: 568x240 точек


Прочие скриншоты - показать

Ссылки:

1. Priyout.avi
(25.08.2010 00:23:43 - Personne) размер: 744.77 Mb. скачано: 8
Имя файла: Priyout.avi
Скачать    Priyout.avi




Оставлять комментарии могут только зарегистрированые пользователи


Похожие названия
Дитя тьмы (Сирота) / Orphan : [745 Мб.], категория: Видео - кто добавил: Slavik - дата добавления: 10.01.2010 22:33:55
Приют : [3892 Мб.], категория: Видео - кто добавил: TARANTYL - дата добавления: 15.08.2009 19:42:25

 
Меню пользователя

Логин: 
Пароль: 
Регистрация  
Радио   Игры  
  Случайная раздача  
  Случайная персоналия  
  Опрос  

Какой язык вам импонирует?
1.   Английский
2.   Французский
3.   Немецкий
4.   Испанский
5.   Русский
6.   Потсанске йазыг
7.   Итальянский
8.   Казахский
9.   Китайский (или Японский)
10.   Зэковский жаргон
11.   Энергичный мат

Зарегистрируйтесь и голосуйте!
Отчет   
  Сегодня...  
  Облако тэгов  
Полноэкранная версия   
  Новые Игры  
1. Chess
2. MahnJongg
3. Ef
4. Alien
  Новые комменты  
1: Assassins Creed Revelations
А как же на Max Payne 3 на 29Гб?
2: Шесть дней, семь ночей / Six D...
Милый комедийно-мелодраматичный мув. История героев повторяет...
3: Team Fortress 2 - Free-to-Play
это онлайн
4: Доктор Хаус 8 / House M.D. 8 (...
+14
5: Стрела. Абсолютное оружие / Ch...
Разадчи по Дагестанский
  Новое в Гостевой  
1:
2: ку
3: Всем ку!!!
4: взял и удалил весь спам
5: Ой, а что это?

Rambler's Top100
Яндекс цитирования

Лучшие пользователи
 1. SCALOlaz (719)
 2. enbjenickrrick (0)
 3. pandoraapcheap (0)
** 123456789
Популярное за месяц - Видео
 
Пользователи онлайн (1) гости (29) UP
 Пользователи: SCALOlaz
 Боты: - NoName -, Mail.Ru, AhrefsBot
 Последние регистрации: kiku0077 , jazooo , ara6 , kellyanne , Asterothgrey
 Ближайшие Дни Рождения: никого нет
 
Администрация Портала не несет ответственности за действия пользователей. Портал содержит только описание и магнет-ссылки, предоставленные пользователями.
Скачивание производится с любого доступного в данный момент -Хаба-.
Все права на опубликованный текст, графику (постеры, скриншоты), мультимедиа-, фото-, видео-, аудиоматериалы принадлежат их авторам. Информация и ссылки опубликованы только для ОЗНАКОМЛЕНИЯ, после чего файлы должны быть удалены.
Использование предоставленных материалов в коммерческих целях, а так-же с целью получения материальной выгоды ЗАПРЕЩЕНО.
Портал не имеет целей нарушить авторские, смежные и прочие защищенные законодательством права лиц, причастных к созданию, либо обремененных официальными правами сетей, торговых представителей.
Coding: "UserSide"SCALOlaz
Design: 'SCALOlaz' и "UserSide"
Система "Magneto" v.1.9.4 by inwm v.1.9.4 -   :
Страница генерировалась: 0.4 с.